Эта тема закрыта, вы не можете редактировать и оставлять сообщения в ней.  [ 1 сообщение ] 
EAC 1.0 beta 3: Отчет: Что есть что? 
Автор Сообщение
Активный участник
Аватара пользователя

Зарегистрирован: 06 ноя 2011, 19:23
Сообщения: 114
В этой статье мы рассмотрим подробнее log файл отчета который предоставляет граббер EAC (Exact Audio Copy), рассмотрим какие параметры важны, а какие второстепенны, что в отчете за что отвечает.
Научившись правильно толковать эти данные, вы самостоятельно сможете осмыслить принцип работы граббера EAC, сделать вывод о правильности настроек граббера для каждого лога в отдельности.

И так возьмем лог, тип рипа - image+.cue. Рип сделан версией EAC V1.0 beta 3:

Разделяем отчет рипа Exact Audio Copy на логические блоки. Зеленным выделены те места, которые важны больше всего, красным выделены правильные значения (идеально правильные настройки):

    1.
    Версия декодера | точная дата рипа | название диска (исполнитель / альбом) | модель привода
    Exact Audio Copy V1.0 beta 3 from 29. August 2011

    EAC extraction logfile from 25. January 2012, 23:37

    Gheorghe Zamfir / Greatest Hits


    Used drive : HL-DT-STDVD-RAM GH15L Adapter: 2 ID: 0

    2.
    Метод чтения | Использование точного потока | Выключено ли кэширование аудио потока приводом | Контроль возврата ошибок C2
    Read mode               : Secure
    Utilize accurate stream : Yes
    Defeat audio cache : Yes
    Make use of C2 pointers : No

    3.
    Коррекция смещения при чтении треков - offset | Способность читать области Lead-in и Lead-out | Заполнение пропущенных сэмплов тишиной | Удаление блоков с тишиной в начале и конце | Использование нулевых сэмплов при вычислениях CRC
    Read offset correction                      : 667
    Overread into Lead-In and Lead-Out : No
    Fill up missing offset samples with silence : Yes
    Delete leading and trailing silent blocks : No
    Null samples used in CRC calculations : Yes
    Used interface : Installed external ASPI interface

Значение 667 является правильным значением коррекции смещения именно для этого конкретного привода. Это значение находится по таблице базы AccurateRip - http://www.accuraterip.com/driveoffsets.htm.

    4. a
    Формат конечного файла в несжатом виде
    Used output format : Internal WAV Routines
    Sample format : 44.100 Hz; 16 Bit; Stereo

В данном случае рип снимался в несжатом формате.

    4. b
    Формат конечного файла в сжатом виде
    Used output format              : User Defined Encoder
    Selected bitrate : 896 kBit/s
    Quality : High
    Add ID3 tag : No
    Command line compressor : D:\AZV\Accessories\Exact Audio Copy\Flac.exe
    Additional command line options : -8 -V -T "COMMENT=EAC FLAC -8 ©AZV" %source%

В данном случае при снятии рипа происходило сжатие "на лету", с помощью внешнего пользовательского кодировщика (Flac). Если указан строковый параметр, то значения в строке Selected bitrate не учитываются кодировщиком (не надо обращать внимание на значения).

    5.
    Трек | Старт | Длительность | Начальный сектор | Конечный сектор
    TOC of the extracted CD

    Track | Start | Length | Start sector | End sector
    ---------------------------------------------------------
    1 | 0:00.00 | 5:54.45 | 0 | 26594
    2 | 5:54.45 | 2:51.63 | 26595 | 39482
    3 | 8:46.33 | 4:06.00 | 39483 | 57932
    4 | 12:52.33 | 7:25.35 | 57933 | 91342
    5 | 20:17.68 | 3:14.60 | 91343 | 105952
    6 | 23:32.53 | 2:49.60 | 105953 | 118687
    7 | 26:22.38 | 1:58.30 | 118688 | 127567
    8 | 28:20.68 | 6:48.55 | 127568 | 158222
    9 | 35:09.48 | 9:28.10 | 158223 | 200832
    10 | 44:37.58 | 5:10.20 | 200833 | 224102

    6.
    Характеристики диапазона извлечения и сообщения об ошибках | Путь сохранения преобразованного файла, наименование и его расширение
    Range status and errors

    Selected range

    Filename D:\EAC\Gheorghe Zamfir - Greatest Hits.wav

    Peak level 96.6 %
    Extraction speed 6.0 X
    Range quality 99.9 %
    Test CRC 290F511E
    Copy CRC 290F511E
    Copy OK

    No errors occurred

При правильном рипе Test CRC и Copy CRC должны совпадать. Если не совпадают, то значит были ошибки при снятии рипа.

    7.
    Сводка AccurateRip
    AccurateRip summary

    Track 1 accurately ripped (confidence 2) [3377858B] (AR v1)
    Track 2 accurately ripped (confidence 2) [A2C6C7FA] (AR v1)
    Track 3 accurately ripped (confidence 2) [40B5A4DB] (AR v1)
    Track 4 accurately ripped (confidence 2) [15F396B1] (AR v1)
    Track 5 accurately ripped (confidence 2) [3C0E8B9A] (AR v1)
    Track 6 accurately ripped (confidence 2) [0127ED67] (AR v1)
    Track 7 accurately ripped (confidence 2) [C8CF4AD6] (AR v1)
    Track 8 accurately ripped (confidence 2) [38F7C6FB] (AR v1)
    Track 9 accurately ripped (confidence 2) [069CB7E0] (AR v1)
    Track 10 accurately ripped (confidence 2) [E2CB02DC] (AR v1)

    All tracks accurately ripped

Если не использовался AccurateRip, то эта часть может отсутствовать в логе. Чем выше значение confidence, тем выше схождение снятого рипа с базой AccurateRip

    8.
    CTDB Plugin
    ---- CUETools DB Plugin V2.1.3

    [CTDB TOCID: j2Ic1fwb0HOAUjwExXssXpLa0cM-] disk not present in database, Submit result: j2Ic1fwb0HOAUjwExXssXpLa0cM- has been uploaded

Эта часть присутствует в логе извлечения только в случае если использовался плагин для дополнительной проверки рипа по базе CUETools DB и отправки данных о рипе в эту базу.

    9.
    Добавлять в отчет контрольную сумму
    ==== Log checksum 3E39DB5BF4F1A852DB35F277DDFF8DE01387928F05123E23F101E33C715E6490 ====

Использование этой опции при снятии рипа крайне желательно, так как при наличии хэш-суммы в логе, подделку (тривиальная правка в текстовом редакторе) легко можно вычислить.

Цельный отчет имиджевого рипа Exact Audio Copy
Exact Audio Copy V1.0 beta 3 from 29. August 2011

EAC extraction logfile from 25. January 2012, 23:37

Gheorghe Zamfir / Greatest Hits

Used drive : HL-DT-STDVD-RAM GH15L Adapter: 2 ID: 0

Read mode : Secure
Utilize accurate stream : Yes
Defeat audio cache : Yes
Make use of C2 pointers : No

Read offset correction : 667
Overread into Lead-In and Lead-Out : No
Fill up missing offset samples with silence : Yes
Delete leading and trailing silent blocks : No
Null samples used in CRC calculations : Yes
Used interface : Installed external ASPI interface

Used output format : Internal WAV Routines
Sample format : 44.100 Hz; 16 Bit; Stereo


TOC of the extracted CD

Track | Start | Length | Start sector | End sector
---------------------------------------------------------
1 | 0:00.00 | 5:54.45 | 0 | 26594
2 | 5:54.45 | 2:51.63 | 26595 | 39482
3 | 8:46.33 | 4:06.00 | 39483 | 57932
4 | 12:52.33 | 7:25.35 | 57933 | 91342
5 | 20:17.68 | 3:14.60 | 91343 | 105952
6 | 23:32.53 | 2:49.60 | 105953 | 118687
7 | 26:22.38 | 1:58.30 | 118688 | 127567
8 | 28:20.68 | 6:48.55 | 127568 | 158222
9 | 35:09.48 | 9:28.10 | 158223 | 200832
10 | 44:37.58 | 5:10.20 | 200833 | 224102


Range status and errors

Selected range

Filename D:\EAC\Gheorghe Zamfir - Greatest Hits.wav

Peak level 96.6 %
Extraction speed 6.0 X
Range quality 99.9 %
Test CRC 290F511E
Copy CRC 290F511E
Copy OK

No errors occurred


AccurateRip summary

Track 1 accurately ripped (confidence 2) [3377858B] (AR v1)
Track 2 accurately ripped (confidence 2) [A2C6C7FA] (AR v1)
Track 3 accurately ripped (confidence 2) [40B5A4DB] (AR v1)
Track 4 accurately ripped (confidence 2) [15F396B1] (AR v1)
Track 5 accurately ripped (confidence 2) [3C0E8B9A] (AR v1)
Track 6 accurately ripped (confidence 2) [0127ED67] (AR v1)
Track 7 accurately ripped (confidence 2) [C8CF4AD6] (AR v1)
Track 8 accurately ripped (confidence 2) [38F7C6FB] (AR v1)
Track 9 accurately ripped (confidence 2) [069CB7E0] (AR v1)
Track 10 accurately ripped (confidence 2) [E2CB02DC] (AR v1)

All tracks accurately ripped

End of status report

---- CUETools DB Plugin V2.1.3

[CTDB TOCID: j2Ic1fwb0HOAUjwExXssXpLa0cM-] disk not present in database, Submit result: j2Ic1fwb0HOAUjwExXssXpLa0cM- has been uploaded


==== Log checksum 3E39DB5BF4F1A852DB35F277DDFF8DE01387928F05123E23F101E33C715E6490 ====

Цельный отчет имиджевого рипа Exact Audio Copy с использованием сжатия "на лету"
Exact Audio Copy V1.0 beta 2 from 29. April 2011

EAC extraction logfile from 10. August 2011, 18:56

George Gershwin / Rhapsody In Blue / American In Paris

Used drive : TSSTcorpCDDVDW SH-S223C Adapter: 2 ID: 1

Read mode : Secure
Utilize accurate stream : Yes
Defeat audio cache : Yes
Make use of C2 pointers : No

Read offset correction : 697
Overread into Lead-In and Lead-Out : No
Fill up missing offset samples with silence : Yes
Delete leading and trailing silent blocks : No
Null samples used in CRC calculations : Yes
Used interface : Installed external ASPI interface

Used output format : User Defined Encoder
Selected bitrate : 896 kBit/s
Quality : High
Add ID3 tag : No
Command line compressor : D:\AZV\Accessories\Exact Audio Copy\Flac.exe
Additional command line options : -8 -V -T "COMMENT=EAC FLAC -8 ©AZV" %source%


TOC of the extracted CD

Track | Start | Length | Start sector | End sector
---------------------------------------------------------
1 | 0:00.00 | 18:36.27 | 0 | 83726
2 | 18:36.27 | 14:11.15 | 83727 | 147566
3 | 32:47.42 | 11:10.13 | 147567 | 197829
4 | 43:57.55 | 7:17.27 | 197830 | 230631
5 | 51:15.07 | 13:12.32 | 230632 | 290063


Range status and errors

Selected range

Filename D:\EAC\George Gershwin - Rhapsody In Blue, American In Paris.wav

Peak level 99.9 %
Extraction speed 3.4 X
Range quality 100.0 %
Test CRC 25BC9C58
Copy CRC 25BC9C58
Copy OK

No errors occurred


AccurateRip summary

Track 1 not present in database
Track 2 accurately ripped (confidence 2) [E60B5603] (AR v1)
Track 3 accurately ripped (confidence 2) [63465E14] (AR v1)
Track 4 accurately ripped (confidence 2) [3C305401] (AR v1)
Track 5 accurately ripped (confidence 2) [E85B8869] (AR v1)

4 track(s) accurately ripped
1 track(s) not present in the AccurateRip database

Some tracks could not be verified as accurate

End of status report

==== Log checksum 7EC6CC61C893A3676AA65C2A645B12F89E7B6E7A85D0F3D4C4A4C61993144717 ====

Цельный отчет потрекового рипа Exact Audio Copy с использованием сжатия "на лету"
Exact Audio Copy V0.99 prebeta 5 from 4. May 2009

EAC extraction logfile from 24. December 2010, 11:23

Calexico / The Black Light

Used drive : PIONEER DVD-RW DVR-118L Adapter: 2 ID: 0

Read mode : Secure
Utilize accurate stream : Yes
Defeat audio cache : Yes
Make use of C2 pointers : No

Read offset correction : 6
Overread into Lead-In and Lead-Out : No
Fill up missing offset samples with silence : Yes
Delete leading and trailing silent blocks : No
Null samples used in CRC calculations : Yes
Used interface : Native Win32 interface for Win NT & 2000
Gap handling : Appended to previous track

Used output format : User Defined Encoder
Selected bitrate : 128 kBit/s
Quality : High
Add ID3 tag : No
Command line compressor : C:\Program Files (x86)\Exact Audio Copy\Flac\flac.exe
Additional command line options : -8 -V -T "ARTIST=%a" -T "TITLE=%t" -T "ALBUM=%g" -T "DATE=%y" -T "TRACKNUMBER=%n" -T "GENRE=%m" -T "COMMENT=EAC FLAC -8" %s


TOC of the extracted CD

Track | Start | Length | Start sector | End sector
---------------------------------------------------------
1 | 0:00.00 | 4:18.07 | 0 | 19356
2 | 4:18.07 | 2:36.33 | 19357 | 31089
3 | 6:54.40 | 3:08.62 | 31090 | 45251
4 | 10:03.27 | 1:57.02 | 45252 | 54028
5 | 12:00.29 | 3:20.37 | 54029 | 69065
6 | 15:20.66 | 2:02.20 | 69066 | 78235
7 | 17:23.11 | 3:33.02 | 78236 | 94212
8 | 20:56.13 | 6:01.21 | 94213 | 121308
9 | 26:57.34 | 3:09.02 | 121309 | 135485
10 | 30:06.36 | 4:10.26 | 135486 | 154261
11 | 34:16.62 | 1:06.24 | 154262 | 159235
12 | 35:23.11 | 2:34.08 | 159236 | 170793
13 | 37:57.19 | 1:27.16 | 170794 | 177334
14 | 39:24.35 | 2:54.06 | 177335 | 190390
15 | 42:18.41 | 2:29.41 | 190391 | 201606
16 | 44:48.07 | 5:10.03 | 201607 | 224859
17 | 49:58.10 | 4:21.13 | 224860 | 244447


Track 1

Filename D:\Торрент\Calexico\1998 - The Black Light\01. Calexico - Gypsy's Curse.wav

Pre-gap length 0:00:02.00

Peak level 99.0 %
Track quality 100.0 %
Test CRC A8A23AD3
Copy CRC A8A23AD3
Accurately ripped (confidence 3) [9E3D8898]
Copy OK

Track 2

Filename D:\Торрент\Calexico\1998 - The Black Light\02. Calexico - Fake Fur.wav

Peak level 99.0 %
Track quality 100.0 %
Test CRC 86EDE56F
Copy CRC 86EDE56F
Accurately ripped (confidence 3) [7F440050]
Copy OK

Track 3

Filename D:\Торрент\Calexico\1998 - The Black Light\03. Calexico - The Ride, Pt. II.wav

Peak level 99.1 %
Track quality 100.0 %
Test CRC BEDA9ED7
Copy CRC BEDA9ED7
Accurately ripped (confidence 3) [7D9229CC]
Copy OK

Track 4

Filename D:\Торрент\Calexico\1998 - The Black Light\04. Calexico - Where Water Flows.wav

Peak level 99.0 %
Track quality 100.0 %
Test CRC 392C66A6
Copy CRC 392C66A6
Accurately ripped (confidence 3) [39452712]
Copy OK

Track 5

Filename D:\Торрент\Calexico\1998 - The Black Light\05. Calexico - The Black Light.wav

Peak level 99.2 %
Track quality 100.0 %
Test CRC 17CA0E76
Copy CRC 17CA0E76
Accurately ripped (confidence 3) [B8322C2A]
Copy OK

Track 6

Filename D:\Торрент\Calexico\1998 - The Black Light\06. Calexico - Sideshow.wav

Peak level 99.0 %
Track quality 100.0 %
Test CRC 70993471
Copy CRC 70993471
Accurately ripped (confidence 3) [C365DB5C]
Copy OK

Track 7

Filename D:\Торрент\Calexico\1998 - The Black Light\07. Calexico - Chach.wav

Peak level 99.0 %
Track quality 100.0 %
Test CRC 842E3B90
Copy CRC 842E3B90
Accurately ripped (confidence 3) [2F31CA16]
Copy OK

Track 8

Filename D:\Торрент\Calexico\1998 - The Black Light\08. Calexico - Missing.wav

Peak level 99.0 %
Track quality 99.9 %
Test CRC 0EF5831C
Copy CRC 0EF5831C
Accurately ripped (confidence 3) [7116F0B9]
Copy OK

Track 9

Filename D:\Торрент\Calexico\1998 - The Black Light\09. Calexico - Minas de Cobre (For Better Metal).wav

Peak level 99.0 %
Track quality 100.0 %
Test CRC 28867A35
Copy CRC 28867A35
Accurately ripped (confidence 3) [7DFC8C3F]
Copy OK

Track 10

Filename D:\Торрент\Calexico\1998 - The Black Light\10. Calexico - Over Your Shoulder.wav

Peak level 99.2 %
Track quality 100.0 %
Test CRC BC9A5AF9
Copy CRC BC9A5AF9
Accurately ripped (confidence 3) [6AB1E94E]
Copy OK

Track 11

Filename D:\Торрент\Calexico\1998 - The Black Light\11. Calexico - Vinegaroon.wav

Peak level 72.4 %
Track quality 100.0 %
Test CRC F61CE386
Copy CRC F61CE386
Accurately ripped (confidence 3) [6F2B9CEB]
Copy OK

Track 12

Filename D:\Торрент\Calexico\1998 - The Black Light\12. Calexico - Trigger.wav

Pre-gap length 0:00:00.16

Peak level 98.3 %
Track quality 100.0 %
Test CRC 8858CF0A
Copy CRC 8858CF0A
Accurately ripped (confidence 2) [B79174B7]
Copy OK

Track 13

Filename D:\Торрент\Calexico\1998 - The Black Light\13. Calexico - Sprawl.wav

Peak level 99.0 %
Track quality 100.0 %
Test CRC 4240B8BB
Copy CRC 4240B8BB
Accurately ripped (confidence 2) [2C4B45F7]
Copy OK

Track 14

Filename D:\Торрент\Calexico\1998 - The Black Light\14. Calexico - Stray.wav

Peak level 99.0 %
Track quality 100.0 %
Test CRC 3DD9971F
Copy CRC 3DD9971F
Accurately ripped (confidence 2) [48DBA7D7]
Copy OK

Track 15

Filename D:\Торрент\Calexico\1998 - The Black Light\15. Calexico - Old Man Waltz.wav

Peak level 99.0 %
Track quality 100.0 %
Test CRC 108B00DD
Copy CRC 108B00DD
Accurately ripped (confidence 3) [F4D24D8F]
Copy OK

Track 16

Filename D:\Торрент\Calexico\1998 - The Black Light\16. Calexico - Bloodflow.wav

Peak level 99.0 %
Track quality 100.0 %
Test CRC 6A75B2E9
Copy CRC 6A75B2E9
Accurately ripped (confidence 2) [81006767]
Copy OK

Track 17

Filename D:\Торрент\Calexico\1998 - The Black Light\17. Calexico - Frontera.wav

Peak level 99.1 %
Track quality 100.0 %
Test CRC 15E3105D
Copy CRC 15E3105D
Accurately ripped (confidence 3) [51119381]
Copy OK


All tracks accurately ripped

No errors occurred

End of status report

_________________
Изображение


Последний раз редактировалось MisterEco 11 июн 2012, 06:44, всего редактировалось 3 раз(а).



17 мар 2012, 12:03
Профиль
Показать сообщения за:  Поле сортировки  
Эта тема закрыта, вы не можете редактировать и оставлять сообщения в ней.   [ 1 сообщение ] 

Кто сейчас на конференции

Сейчас этот форум просматривают: нет зарегистрированных пользователей и гости: 1


Вы не можете начинать темы
Вы не можете отвечать на сообщения
Вы не можете редактировать свои сообщения
Вы не можете удалять свои сообщения
Вы не можете добавлять вложения

Найти:
Перейти:  
cron


Создано на основе phpBB® Forum Software © phpBB Group
Designed by ST Software.
Русская поддержка phpBB
[ Time : 0.019s | 16 Queries | GZIP : Off ]